Assassin's Creed (Assassin's Creed) 2016 DVDRip HUNDUB magyarul beszélő, amerikai-angol-francia akciófilm, 115 perc, (16)

Előző téma megtekintése Következő téma megtekintése Go down

GMT - 2 Hours Assassin's Creed (Assassin's Creed) 2016 DVDRip HUNDUB magyarul beszélő, amerikai-angol-francia akciófilm, 115 perc, (16)

Témanyitás by lion50 on Hétf. 05 Jún. 2017, 07:16

Assassin's Creed (Assassin's Creed) 2016 DVDRip HUNDUB
magyarul beszélő, amerikai-angol-francia akciófilm, 115 perc, (16)



RENDEZŐ: Justin Kurzel
FORGATÓKÖNYVÍRÓ: Bill Collage, Adam Cooper, Michael Lesslie
OPERATŐR: Adam Arkapaw
ZENE: Jed Kurzel
PRODUCER: Patrick Crowley, Michael Fassbender
VÁGÓ: Christopher Tellefsen

Stáblista:
Szereplők
Michael Fassbender
Marion Cotillard
Jeremy Irons
Brendan Gleeson
Michael Kenneth Williams
Callum Turner
Ariane Labed
Matias Varela

Tartalom:
Egy forradalmian új technológia segítségével Callum Lynch (Michael Fassbender) újraéli egyik őse, a 15. századi Spanyolországban született Aguilar kalandjait. A férfi így érti meg, hogy egy titokzatos, ősi szövetség, az Assasinok rendjének leszármazottja. Hihetetlen tudással és ügyességgel rendelkezik - de csak azért, hogy szembeszállhasson a nagy erejű és gonosz szándékú Templomosokkal.
General
Complete name : assassinscreed-sd-hyperx..MP4
Format : MPEG-4
Format profile : Base Media / Version 2
Codec ID : mp42 (isom/iso2/avc1/mp41)
File size : 492 MiB
Duration : 1 h 55 min
Overall bit rate mode : Variable
Overall bit rate : 595 kb/s
Encoded date : UTC 2017-04-07 14:34:06
Tagged date : UTC 2017-04-07 14:34:06
Writing application : HandBrake 0.10.5 2016021100

Video
ID : 1
Format : AVC
Format/Info : Advanced Video Codec
Format profile : High@L3.1
Format settings, CABAC : Yes
Format settings, ReFrames : 4 frames
Codec ID : avc1
Codec ID/Info : Advanced Video Coding
Duration : 1 h 55 min
Bit rate : 512 kb/s
Width : 710 pixels
Height : 302 pixels
Display aspect ratio : 2.35:1
Frame rate mode : Variable
Frame rate : 23.976 (24000/1001) FPS
Minimum frame rate : 23.810 FPS
Maximum frame rate : 24.390 FPS
Color space : YUV
Chroma subsampling : 4:2:0
Bit depth : 8 bits
Scan type : Progressive
Bits/(Pixel*Frame) : 0.100
Stream size : 433 MiB (88%)
Writing library : x264
Encoded date : UTC 2017-04-07 14:34:06
Tagged date : UTC 2017-04-07 14:34:06
Color range : Limited
Color primaries : BT.601 NTSC
Transfer characteristics : BT.709
Matrix coefficients : BT.601

Audio
ID : 2
Format : AAC
Format/Info : Advanced Audio Codec
Format profile : LC
Codec ID : 40
Duration : 1 h 55 min
Bit rate mode : Variable
Bit rate : 64.0 kb/s
Channel(s) : 2 channels
Channel positions : Front: L R
Sampling rate : 48.0 kHz
Frame rate : 46.875 FPS (1024 spf)
Compression mode : Lossy
Stream size : 52.9 MiB (11%)
Title : Stereo / Stereo
Language : Hungarian
Default : Yes
Alternate group : 1
Encoded date : UTC 2017-04-07 14:34:06
Tagged date : UTC 2017-04-07 14:34:0

Kód:
https://data.hu/get/10561672/assassinscreed-sd-hyperx..001
https://data.hu/get/10561676/assassinscreed-sd-hyperx..002
https://data.hu/get/10561675/assassinscreed-sd-hyperx..003
https://data.hu/get/10561677/assassinscreed-sd-hyperx..004
https://data.hu/get/10561674/assassinscreed-sd-hyperx..005
https://data.hu/get/10561678/assassinscreed-sd-hyperx..crc

Kód:
https://data.hu/get/10561673/assassinscreed-sd-hyperx..MP4.zip
avatar
lion50

Hozzászólások száma : 115
Join date : 2016. Sep. 10.
Tartózkodási hely : Barcs

http://androware.hu

Vissza az elejére Go down

GMT - 2 Hours Re: Assassin's Creed (Assassin's Creed) 2016 DVDRip HUNDUB magyarul beszélő, amerikai-angol-francia akciófilm, 115 perc, (16)

Témanyitás by pinterg on Vas. 24 Szept. 2017, 21:45

Köszönöm!

pinterg

Hozzászólások száma : 41
Join date : 2014. Nov. 18.

Vissza az elejére Go down

Előző téma megtekintése Következő téma megtekintése Vissza az elejére


 
Permissions in this forum:
Nem válaszolhatsz egy témára ebben a fórumban.