Megáldva (Gifted,) 2017 DVDRip színes, magyarul beszélő, amerikai filmdráma, 101 perc, (12

Előző téma megtekintése Következő téma megtekintése Go down

GMT - 1 Hours Megáldva (Gifted,) 2017 DVDRip színes, magyarul beszélő, amerikai filmdráma, 101 perc, (12

Témanyitás by lion50 on Szer. 11 Okt. 2017, 08:39

Megáldva (Gifted,) 2017 DVDRip
színes, magyarul beszélő, amerikai filmdráma, 101 perc, (12)



Stáb:
rendező: Marc Webb
forgatókönyvíró: Tom Flynn
operatőr: Stuart Dryburgh
zene: Rob Simonsen
producer: Andy Cohen, Karen Lunder
vágó: Bill Pankow


szereplok:
Chris Evans (Frank Adler)
Jenny Slate (Bonnie)
Mckenna Grace (Mary Adler)
Lindsay Duncan (Evelyn Adler)
Octavia Spencer (Roberta Taylor)
Julie Ann Emery (Pat Golding)
Keir O'Donnell (Bradley Pollard)
Glenn Plummer (Greg Cullen)
Joe Chrest (Kevin Larsen)


Tartalom:
Frank Adler egyedülálló férfi, aki az unokahúgát, Mary-t próbálja felnevelgetni egy tengerparti városban, Floridában. Hét évesen kiderül, hogy a lány csodagyerek, mert a matematikai képességei kiválóak. Amikor ez Frank anyjának, Evelynnek a tudomására jut, megpróbálja szétválasztani kettőjüket.

General
Complete name : Megáldva (Gifted) 2017.avi
Format : AVI
Format/Info : Audio Video Interleave
Format profile : OpenDML
File size : 1.29 GiB
Duration : 1 h 41 min
Overall bit rate : 1 821 kb/s
Movie name : No1
Writing application : Lavf54.63.104

Video
ID : 0
Format : AVC
Format/Info : Advanced Video Codec
Format profile : Main@L3
Format settings : CABAC / 1 Ref Frames
Format settings, CABAC : Yes
Format settings, RefFrames : 1 frame
Codec ID : H264
Duration : 1 h 41 min
Bit rate : 1 559 kb/s
Width : 720 pixels
Height : 300 pixels
Display aspect ratio : 2.40:1
Frame rate mode : Variable
Frame rate : 23.976 (24000/1001) FPS
Color space : YUV
Chroma subsampling : 4:2:0
Bit depth : 8 bits
Scan type : Progressive
Bits/(Pixel*Frame) : 0.301
Stream size : 1.10 GiB (85%)
Writing library : x264

Audio
ID : 1
Format : MPEG Audio
Format version : Version 1
Format profile : Layer 3
Format settings : Joint stereo
Mode : Joint stereo
Codec ID : 55
Codec ID/Hint : MP3
Duration : 1 h 41 min
Bit rate mode : Constant
Bit rate : 256 kb/s
Channel(s) : 2 channels
Sampling rate : 48.0 kHz
Compression mode : Lossy
Stream size : 185 MiB (14%)
Alignment : Aligned on interleaves
Interleave, duration : 24 ms (0.58 video frame)

Kód:
http://www.xdisk.cz/cs/download.php?id=7DF7F87D1

Kód:
https://data.hu/get/10790784/Megaldva_Gifted_2017.001
https://data.hu/get/10790785/Megaldva_Gifted_2017.002
https://data.hu/get/10790782/Megaldva_Gifted_2017.003
https://data.hu/get/10790783/Megaldva_Gifted_2017.004
https://data.hu/get/10790781/Megaldva_Gifted_2017.005
https://data.hu/get/10790779/Megaldva_Gifted_2017.006
https://data.hu/get/10790778/Megaldva_Gifted_2017.007
https://data.hu/get/10790780/Megaldva_Gifted_2017.crc

Kód:
https://data.hu/get/10790777/Megaldva_Gifted_2017.zip
avatar
lion50

Hozzászólások száma : 116
Join date : 2016. Sep. 10.
Tartózkodási hely : Barcs

http://androware.hu

Vissza az elejére Go down

Előző téma megtekintése Következő téma megtekintése Vissza az elejére


 
Permissions in this forum:
Nem válaszolhatsz egy témára ebben a fórumban.